#TITLE:Metal Warrior 3;
#SUBTITLE:;
#ARTIST:Cadaver;
#TITLETRANSLIT:;
#SUBTITLETRANSLIT:;
#ARTISTTRANSLIT:;
#CREDIT:;
#BANNER:Metal Warrior 3.jpg;
#BACKGROUND:Metal Warrior 3-bg.jpg;
#LYRICSPATH:;
#CDTITLE:cdtitle.png;
#MUSIC:Metal Warrior 3.mp3;
#OFFSET:1.200;
#SAMPLESTART:38.780;
#SAMPLELENGTH:12.000;
#SELECTABLE:YES;
#BPMS:0.000=150.400;
#STOPS:;
#BGCHANGES:;
// cache tags:
#FIRSTBEAT:4.000;
#LASTBEAT:226.000;
#SONGFILENAME:Songs/Music V.I.P ^_^/Metal Warrior 3 (Zaghurim)/Metal Warrior 3.sm;
#HASMUSIC:1;
#HASBANNER:1;
#MUSICLENGTH:89.817;
// end cache tags

//---------------dance-single - ----------------
#NOTES:
     dance-single:
     :
     Hard:
     12:
     0.989,1.000,1.000,0.045,1.000,514.000,104.000,4.000,0.000,0.000:




0000
0000
0000
0000
,
1001
0000
0000
0000
0000
0000
1001
0110
0000
0000
0000
0000
0000
0000
0000
0000
,
0011
0000
0000
0101
0000
0000
0110
0000
1010
0000
0000
0000
0000
0000
0000
0000
,
1010
0000
0000
0000
0000
0000
1010
0101
0000
0000
0000
0000
0000
0000
0000
0000
,
0101
0000
0000
0110
0000
0000
1010
0000
1100
0000
0000
0000
0000
0000
0000
0000
,
1100
0000
0000
0000
0000
0000
1100
0011
0000
0000
0000
0000
0000
0000
0000
0000
,
1001
0000
0000
0110
0000
0000
0101
0000
1010
0000
0000
0000
1000
0100
0010
0001
,
2000
0000
0000
0000
0000
0000
0000
0000
0000
0000
0000
0000
3001
0010
0100
1000
,
0002
0000
0000
0000
0000
0000
0000
0000
0103
0010
0000
1000
0010
1000
0010
0000
,
1000
0100
0010
0001
0100
0001
0100
0001
1000
0100
0010
0001
0100
0001
0100
1001
,
0000
1001
0100
0010
1000
0010
0100
1001
0000
1001
0010
0100
1000
0001
0100
0010
,
1000
0010
0100
0001
1000
0010
1000
0010
0100
0010
0100
0001
0100
0001
0100
0011
,
0000
0011
0100
1000
0100
0010
0100
0011
0000
0011
0100
1000
0100
0010
0100
1000
,
0001
0100
0001
0100
0010
1000
0010
1000
0010
0100
0010
0100
0001
0100
0010
0101
,
0000
0010
1000
0010
0101
0000
0010
0101
0000
0010
1000
0010
0101
0000
0000
0000
,
0001
1000
0001
1000
0010
0100
0010
0100
0001
0100
0001
0100
0010
1000
0010
1001
,
0000
0000
0010
0000
0100
0000
0010
0000
1001
0000
0000
0000
0100
0000
1010
0000
0000
0000
0010
0000
0100
0000
0010
0000
1001
0000
0010
0100
0010
0000
1000
0000
,
0001
1000
0001
0000
0000
1000
0010
0000
1000
0000
0010
0000
1000
0100
0010
0001
,
1000
0001
1000
0000
0000
0001
0100
0000
0001
0000
0100
0000
0001
0100
0001
0000
,
0010
1000
0010
0000
0000
1000
0001
0000
1000
0000
0001
0000
1000
0001
1000
0000
,
0100
0000
0001
0000
0100
0000
0000
0000
0000
0000
0100
0000
0010
0000
0000
0000
0001
0000
1000
0000
0001
0000
1000
0000
0001
0010
0100
1000
0001
0000
0100
0000
,
1001
0000
0000
0000
1000
0100
0010
0001
0000
0000
0000
0000
0000
0000
0000
0000
,
1001
0000
0000
0000
0110
0000
1001
0110
0000
0000
0000
0000
0000
0000
0000
0000
,
1001
0000
0000
0000
1000
0010
0100
0001
0000
0000
0000
0000
0000
0000
0000
0000
,
0101
0000
0000
0000
1010
0000
1010
0101
0000
0000
0000
0000
0000
0000
0000
0000
,
1001
0000
0001
0010
0100
1000
0100
0010
1001
0000
1000
0100
0010
0001
0010
0100
,
1001
0000
0110
0000
,
0001
0010
0100
1000
0001
0100
0010
1000
0001
0100
0010
1000
0001
0100
0010
0100
,
0001
1000
0010
0100
0001
1000
0010
0000
1001
0000
0000
0000
0000
0000
0000
0000
,
1001
0000
0000
0000
0000
0000
1001
0110
0000
0000
0000
0000
0000
0000
0000
0000
,
1100
0000
0000
1010
0000
0000
0110
0000
0101
0000
0000
0000
0000
0000
0000
0000
,
0101
0000
0000
0000
0000
0000
0101
1010
0000
0000
0000
0000
0000
0000
0000
0000
,
1010
0000
0000
0110
0000
0000
0101
0000
0011
0000
0000
0000
0000
0000
0000
0000
,
0011
0000
0000
0000
0000
0000
0011
1100
0000
0000
0000
0000
0000
0000
0000
0000
,
1001
0000
0000
0110
0000
0000
1010
0000
0101
0000
0000
0000
0001
0010
0100
1000
,
0002
0000
0000
0000
0000
0000
0000
0000
0000
0000
0000
0000
1003
0100
0010
0001
,
2000
0000
0000
0000
0000
0000
0000
0000
3010
0100
0000
0001
0100
0001
0100
0000
,
0001
0010
0100
1000
0010
1000
0010
1000
0001
0010
0100
1000
0010
1000
0010
1001
,
0000
1001
0010
0100
0001
0100
0010
1001
0000
1001
0100
0010
0001
1000
0010
0100
,
0001
0100
0010
1000
0001
0100
0001
0100
0010
0100
0010
1000
0010
1000
0010
1100
,
0000
1100
0010
0001
0010
0100
0010
1100
0000
1100
0010
0001
0010
0100
0010
0001
,
1000
0010
1000
0010
0100
0001
0100
0001
0100
0010
0100
0010
1000
0010
0100
1010
,
0000
0100
0001
0100
1010
0000
0100
1010
0000
0100
0001
0100
1010
0000
0000
0000
,
1000
0001
1000
0001
0100
0010
0100
0010
1000
0010
1000
0010
0100
0001
0100
1001
,
0000
0000
0100
0000
0010
0000
0100
0000
1001
0000
0000
0000
0010
0000
0101
0000
0000
0000
0100
0000
0010
0000
0100
0000
1001
0000
0100
0010
0100
0000
0001
0000
,
1000
0001
1000
0000
0000
0001
0100
0000
0001
0000
0100
0000
0001
0010
0100
1000
,
0001
1000
0001
0000
0000
1000
0010
0000
1000
0000
0010
0000
1000
0010
1000
0000
,
0100
0001
0100
0000
0000
0001
1000
0000
0001
0000
1000
0000
0001
1000
0001
0000
,
0010
0000
1000
0000
0010
0000
0000
0000
0000
0000
0010
0000
0100
0000
0000
0000
1000
0000
0001
0000
1000
0000
0001
0000
1000
0100
0010
0001
1000
0000
0010
0000
,
1001
0000
0000
0000
0001
0010
0100
1000
0000
0000
0000
0000
0000
0000
0000
0000
,
1001
0000
0000
0000
0110
0000
1001
0110
0000
0000
0000
0000
0000
0000
0000
0000
,
1001
0000
0000
0000
0001
0100
0010
1000
0000
0000
0000
0000
0000
0000
0000
0000
,
1010
0000
0000
0000
0101
0000
0101
1010
0000
0000
0000
0000
0000
0000
0000
0000
,
1001
0000
1000
0100
0010
0001
0010
0100
1001
0000
0001
0010
0100
1000
0100
0010
,
1001
0000
0110
0000
,
1000
0100
0010
0001
1000
0010
0100
0001
1000
0010
0100
0001
1000
0010
0100
0010
,
1000
0001
0100
0010
1000
0001
0100
0000
1001
0000
0000
0000
0000
0000
0000
0000
;

//---------------dance-single - ----------------
#NOTES:
     dance-single:
     :
     Challenge:
     13:
     1.000,1.000,1.000,0.045,1.000,752.000,124.000,4.000,0.000,0.000:

0000
0000
0000
0000
,
1001
0010
0100
0001
0100
0010
1001
0110
0001
1000
0001
0100
0010
1000
0001
0100
,
0011
1000
0010
0101
0010
1000
0110
0001
1010
0100
0001
0100
0010
0100
0001
0100
,
1010
0001
0100
0010
0100
0001
1010
0101
0010
1000
0010
0100
0001
1000
0010
0100
,
1001
0010
1000
0110
0001
0100
1010
0001
1100
0010
0100
0001
1000
0010
0100
0001
,
1100
0010
0100
0001
1000
0010
1100
0011
1000
0010
0100
0001
1000
0010
0100
0010
,
1001
0100
0001
0110
1000
0010
0101
0010
1001
0100
0010
0001
1000
0100
0010
0001
,
2000
0000
0000
0000
0000
0000
0000
0000
0000
0000
0000
0000
3001
0010
0100
1000
,
0002
0000
0000
0000
0000
0000
0000
0000
0103
0010
0000
1000
0010
1000
0010
0000
,
1000
0100
0010
0001
0100
0001
0100
0001
1000
0100
0010
0001
0100
0001
0100
1001
,
0000
1001
0100
0010
1000
0010
0100
1001
0000
1001
0010
0100
1000
0001
0100
0010
,
1000
0010
0100
0001
1000
0010
1000
0010
0100
0010
0100
0001
0100
0001
0100
0011
,
0000
0011
0100
1000
0100
0010
0100
0011
0000
0011
0100
1000
0100
0010
0100
1000
,
0001
0100
0001
0100
0010
1000
0010
1000
0010
0100
0010
0100
0001
0100
0010
0101
,
0000
0010
1000
0010
0101
0101
0010
0101
0000
0010
1000
0010
0101
0000
0000
0000
,
0001
1000
0001
1000
0010
0100
0010
0100
0001
0100
0001
0100
0010
1000
0010
1001
,
0000
0000
0100
0000
0010
0000
0100
0000
1010
0000
1010
0000
0100
0000
1010
0000
0000
0000
0010
0000
0100
0000
0010
0000
1001
0000
0010
0100
0010
0000
1000
0000
,
0001
1000
0001
0000
0000
1000
0010
0000
1000
0000
0010
0000
1000
0100
0010
0001
,
1000
0001
1000
0000
0000
0001
0100
0000
0001
0000
0100
0000
0001
0100
0001
0000
,
0010
1000
0010
0000
0000
1000
0001
0000
1000
0000
0001
0000
1000
0001
1000
0000
,
0100
0000
0001
0000
0100
0000
0000
0000
0000
0000
0100
0000
0010
0000
0000
0000
0001
0000
1000
0000
0001
0000
1000
0000
0001
0010
0100
1000
0001
0000
0100
0000
,
1001
0100
0010
0001
1010
0101
1010
0101
0010
1000
0010
0100
0001
1000
0001
0100
,
1001
0010
1000
0010
0101
0010
0101
1010
0100
0001
1000
0010
0100
0001
1000
0010
,
1001
0100
0010
0100
1001
0110
1001
0110
0001
1000
0010
0100
0001
1000
0010
1000
,
0101
0010
0100
0001
1010
0100
1010
0101
0010
1000
0001
0100
0010
1000
0001
0100
,
1001
0000
0001
0010
0100
1000
0100
0010
1001
0000
1000
0100
0010
0001
0010
0100
,
1001
0000
0110
0000
,
0001
0010
0100
1000
0001
0100
0010
1000
0001
0100
0010
1000
0001
0100
0010
0100
,
0001
1000
0010
0010
0100
0010
0010
0000
1001
0000
0000
0000
0000
0000
0000
0000
,
1001
0100
0010
1000
0010
0100
1001
0110
1000
0001
1000
0010
0100
0001
1000
0010
,
1100
0001
0100
1010
0100
0001
0110
1000
0101
0010
1000
0010
0100
0010
1000
0010
,
0101
1000
0010
0100
0010
1000
0101
1010
0100
0001
0100
0010
1000
0001
0100
0010
,
1001
0100
0001
0110
1000
0010
0101
1000
0011
0100
0010
1000
0001
0100
0010
1000
,
0011
0100
0010
1000
0001
0100
0011
1100
0001
0100
0010
1000
0001
0100
0010
0100
,
1001
0010
1000
0110
0001
0100
1010
0100
1001
0010
0100
1000
0001
0010
0100
1000
,
0002
0000
0000
0000
0000
0000
0000
0000
0000
0000
0000
0000
1003
0100
0010
0001
,
2000
0000
0000
0000
0000
0000
0000
0000
3010
0100
0000
0001
0100
0001
0100
0000
,
0001
0010
0100
1000
0010
1000
0010
1000
0001
0010
0100
1000
0010
1000
0010
1001
,
0000
1001
0010
0100
0001
0100
0010
1001
0000
1001
0100
0010
0001
1000
0010
0100
,
0001
0100
0010
1000
0001
0100
0001
0100
0010
0100
0010
1000
0010
1000
0010
1100
,
0000
1100
0010
0001
0010
0100
0010
1100
0000
1100
0010
0001
0010
0100
0010
0001
,
1000
0010
1000
0010
0100
0001
0100
0001
0100
0010
0100
0010
1000
0010
0100
1010
,
0000
0100
0001
0100
1010
1010
0100
1010
0000
0100
0001
0100
1010
0000
0000
0000
,
1000
0001
1000
0001
0100
0010
0100
0010
1000
0010
1000
0010
0100
0001
0100
1001
,
0000
0000
0010
0000
0100
0000
0010
0000
0101
0000
0101
0000
0010
0000
0101
0000
0000
0000
0100
0000
0010
0000
0100
0000
1001
0000
0100
0010
0100
0000
0001
0000
,
1000
0001
1000
0000
0000
0001
0100
0000
0001
0000
0100
0000
0001
0010
0100
1000
,
0001
1000
0001
0000
0000
1000
0010
0000
1000
0000
0010
0000
1000
0010
1000
0000
,
0100
0001
0100
0000
0000
0001
1000
0000
0001
0000
1000
0000
0001
1000
0001
0000
,
0010
0000
1000
0000
0010
0000
0000
0000
0000
0000
0010
0000
0100
0000
0000
0000
1000
0000
0001
0000
1000
0000
0001
0000
1000
0100
0010
0001
1000
0000
0010
0000
,
1001
0010
0100
1000
0101
1010
0101
1010
0100
0001
0100
0010
1000
0001
1000
0010
,
1001
0100
0001
0100
1010
0100
1010
0101
0010
1000
0001
0100
0010
1000
0001
0100
,
1001
0010
0100
0010
1001
0110
1001
0110
1000
0001
0100
0010
1000
0001
0100
0001
,
1010
0100
0010
1000
0101
0010
0101
1010
0100
0001
1000
0010
0100
0001
1000
0010
,
1001
0000
1000
0100
0010
0001
0010
0100
1001
0000
0001
0010
0100
1000
0100
0010
,
1001
0000
0110
0000
,
1000
0100
0010
0001
1000
0010
0100
0001
1000
0010
0100
0001
1000
0010
0100
0010
,
1000
0001
0001
0100
0010
0010
0010
0000
1001
0000
0000
0000
0000
0000
0000
0000
;
